Бэтмен против Супермена: На заре справедливости / Batman v Superman: Dawn of Justice (2016) BDRip [H.264] [Театральная версия]


Бэтмен против Супермена: На заре справедливости / Batman v Superman: Dawn of Justice (2016) BDRip [H.264] [Театральная версия]
Производство: США, DC Entertainment, Dune Entertainment, Syncopy
Жанр: Фантастика, Боевик

Режиссер: Зак Снайдер
Продюсер: Чарльз Ровен, Дебора Снайдер, Уэсли Коллер
Актеры: Генри Кавилл, Бен Аффлек, Галь Гадот, Джейсон Момоа, Эми Адамс, Джесси Айзенберг, Джена Мэлоун, Эзра Миллер, Дайан Лэйн, Джереми Айронс

Описание:
Опасаясь, что действия богоподобного супергероя так и останутся бесконтрольными, грозный и могущественный страж Готэм Сити бросает вызов самому почитаемому в наши дни спасителю Метрополиса, в то время как весь остальной мир решает, какой герой ему по-настоящему нужен. И пока Бэтмен и Супермен пребывают в состоянии войны друг с другом, возникает новая угроза, которая ставит человечество под самую большую опасность, с которой оно когда-либо сталкивалось.


Возраст: 16+ (зрителям, достигшим 16 лет)
Рейтинг MPAA: PG-13 (детям до 13 лет просмотр нежелателен)
Дата мировой премьеры: 23 марта 2016
Дата российской премьеры: 24 марта 2016, «Каро-Премьер»

Продолжительность: 02:31:41
Качество видео: BDRip (H.264)
Перевод: Дублированный (Лицензия BD CEE)
Вид субтитров: Вшитые отключаемые
Язык субтитров: Русский, Английский

Видео: AVC/H.264, 984×410, (2.40:1), 2107 kbps, 23.976 fps
Аудио: AC3, 6 ch, 448 kbps — Русский
Аудио: AC3, 2 ch, 192 kbps — Английский

Общее
Уникальный идентификатор : 226966690439272661293268503152640896544 (0xAAC031CDFFC2F84ABB778FE1AACFAE20)
Полное имя : M:2RipsBatman v Superman Dawn of JusticeBatman.v.Superman.Dawn.of.Justice.2016.BDRip-AVC.Dub.2.91Gb.stalkerok.new-team.mkv
Формат : Matroska
Версия формата : Version 4 / Version 2
Размер файла : 2,91 Гбайт
Продолжительность : 2 ч. 31 м.
Общий поток : 2749 Кбит/сек
Название фильма : Batman v Superman: Dawn of Justice (2016) (Rip by stalkerok)
Дата кодирования : UTC 2016-07-17 19:34:34
Программа кодирования : mkvmerge v8.6.1 ('Flying') 64bit
Библиотека кодирования : libebml v1.3.3 + libmatroska v1.4.4

Видео
Идентификатор : 1
Формат : AVC
Формат/Информация : Advanced Video Codec
Профиль формата : High@L4.1
Параметр CABAC формата : Да
Параметр ReFrames формата : 14 кадров
Идентификатор кодека : V_MPEG4/ISO/AVC
Продолжительность : 2 ч. 31 м.
Битрейт : 2107 Кбит/сек
Ширина : 984 пикселя
Высота : 410 пикселей
Соотношение сторон : 2,40:1
Режим частоты кадров : Постоянный
Частота кадров : 23,976 (24000/1001) кадра/сек
Цветовое пространство : YUV
Субдискретизация насыщенности : 4:2:0
Битовая глубина : 8 бит
Тип развёртки : Прогрессивная
Бит/(Пиксели*Кадры) : 0.218
Размер потока : 2,23 Гбайт (77%)
Заголовок : Batman v Superman: Dawn of Justice (2016) (Rip by stalkerok)
Библиотека кодирования : x264 core 148 r2705+54 9f484c1 t_mod_Custom [8-bit@all X86_64]
Настройки программы : cabac=1 / ref=14 / deblock=1:-3:-2 / analyse=0x3:0x133 / me=umh / subme=10 / psy=1 / fade_compensate=0.00 / psy_rd=1.00:0.00 / mixed_ref=1 / me_range=32 / chroma_me=1 / trellis=2 / 8x8dct=1 / cqm=0 / deadzone=21,11 / fast_pskip=0 / chroma_qp_offset=-2 / threads=12 / lookahead_threads=3 / sliced_threads=0 / nr=0 / decimate=0 / interlaced=0 / bluray_compat=0 / constrained_intra=0 / fgo=0 / bframes=14 / b_pyramid=2 / b_adapt=2 / b_bias=0 / direct=3 / weightb=1 / open_gop=0 / weightp=2 / keyint=240 / keyint_min=23 / scenecut=40 / intra_refresh=0 / rc_lookahead=60 / rc=2pass / mbtree=0 / bitrate=2107 / ratetol=1.0 / qcomp=0.65 / qpmin=0:0:0 / qpmax=69:69:69 / qpstep=4 / cplxblur=20.0 / qblur=0.5 / vbv_maxrate=50000 / vbv_bufsize=62500 / nal_hrd=none / filler=0 / ip_ratio=1.40 / pb_ratio=1.30 / aq=3:0.90 / aq-sensitivity=10.00 / aq-factor=1.00:1.00:1.00 / aq2=0 / aq3=0
Default : Да
Forced : Нет

Аудио #1
Идентификатор : 2
Формат : AC-3
Формат/Информация : Audio Coding 3
Расширение режима : CM (complete main)
Параметр Endianness формата : Big
Идентификатор кодека : A_AC3
Продолжительность : 2 ч. 31 м.
Вид битрейта : Постоянный
Битрейт : 448 Кбит/сек
Каналы : 6 каналов
Расположение каналов : Front: L C R, Side: L R, LFE
Частота : 48,0 КГц
Частота кадров : 31,250 кадров/сек (1536 spf)
Метод сжатия : С потерями
Размер потока : 486 Мбайт (16%)
Язык : Russian
Default : Да
Forced : Нет

Аудио #2
Идентификатор : 3
Формат : AC-3
Формат/Информация : Audio Coding 3
Расширение режима : CM (complete main)
Параметр Endianness формата : Big
Идентификатор кодека : A_AC3
Продолжительность : 2 ч. 31 м.
Вид битрейта : Постоянный
Битрейт : 192 Кбит/сек
Каналы : 2 канала
Расположение каналов : Front: L R
Частота : 48,0 КГц
Частота кадров : 31,250 кадров/сек (1536 spf)
Метод сжатия : С потерями
Размер потока : 208 Мбайт (7%)
Язык : English
Default : Нет
Forced : Нет

Текст #1
Идентификатор : 4
Формат : UTF-8
Идентификатор кодека : S_TEXT/UTF8
Идентификатор кодека/Информация : UTF-8 Plain Text
Продолжительность : 2 ч. 30 м.
Битрейт : 4 бит/сек
Count of elements : 100
Размер потока : 4,72 Кбайт (0%)
Заголовок : Forced
Язык : Russian
Default : Да
Forced : Нет

Текст #2
Идентификатор : 5
Формат : UTF-8
Идентификатор кодека : S_TEXT/UTF8
Идентификатор кодека/Информация : UTF-8 Plain Text
Продолжительность : 2 ч. 31 м.
Битрейт : 57 бит/сек
Count of elements : 1293
Размер потока : 63,8 Кбайт (0%)
Язык : Russian
Default : Нет
Forced : Нет

Текст #3
Идентификатор : 6
Формат : UTF-8
Идентификатор кодека : S_TEXT/UTF8
Идентификатор кодека/Информация : UTF-8 Plain Text
Продолжительность : 2 ч. 22 м.
Битрейт : 35 бит/сек
Count of elements : 1149
Размер потока : 36,7 Кбайт (0%)
Язык : English
Default : Нет
Forced : Нет

Текст #4
Идентификатор : 7
Формат : UTF-8
Идентификатор кодека : S_TEXT/UTF8
Идентификатор кодека/Информация : UTF-8 Plain Text
Продолжительность : 2 ч. 31 м.
Битрейт : 39 бит/сек
Count of elements : 1474
Размер потока : 43,5 Кбайт (0%)
Заголовок : SDH
Язык : English
Default : Нет
Forced : Нет

Меню
00:00:00.000 : en:Chapter 1
00:09:50.047 : en:Chapter 2
00:20:45.786 : en:Chapter 3
00:29:58.671 : en:Chapter 4
00:38:46.615 : en:Chapter 5
00:49:25.921 : en:Chapter 6
00:59:21.558 : en:Chapter 7
01:10:06.202 : en:Chapter 8
01:21:15.120 : en:Chapter 9
01:30:00.311 : en:Chapter 10
01:38:20.811 : en:Chapter 11
01:49:57.382 : en:Chapter 12
02:01:49.051 : en:Chapter 13
02:10:40.415 : en:Chapter 14
02:18:41.313 : en:Chapter 15
02:23:50.371 : en:Chapter 16

Похожие торренты

Опубликовано в Без рубрики Метки: , , , , , , , , , , , , , , , , ,

Добавить комментарий

Ваш e-mail не будет опубликован. Обязательные поля помечены *

*

Популярные за неделю

Популярные за месяц