Черепашки-ниндзя 2 / Teenage Mutant Ninja Turtles 2 (2016) WEB-DL [H.264/1080p-LQ]


Черепашки-ниндзя 2 / Teenage Mutant Ninja Turtles 2 (2016) WEB-DL [H.264/1080p-LQ]

Производство: США, Гонконг, Китай, Канада, Gama Entertainment Partners, Nickelodeon Movies, Paramount Pictures
Жанр: Фантастика, Боевик, Фэнтези, Приключения

Режиссер: Дэйв Грин
Продюсер: Эндрю Форм, Брэдли Фуллер, Скотт Медник
Актеры: Меган Фокс, Уилл Арнетт, Уильям Фихтнер, Стивен Эмелл, Лора Линни, Брайан Ти, Тайлер Перри, Алессандра Амбросио, Джереми Ховард, Пит Плошек, Ноэль Фишер, Алан Ритчсон, Дэнни Вудберн, Антуанетта Никпрелаж

Описание:
Долгое время черепашки-ниндзя скрывались от людей в лабиринтах городской канализации. На протяжении нескольких лет учитель Сплинтер обучал их боевым искусствам и прививал им чувство справедливости. В один прекрасный момент им пришлось подняться наверх, чтобы спасти Нью-Йорк от Шредера, предводителя Клана Футов, захватившего власть в Нью-Йорке. Вместе с отважным репортером Эйприл и ее оператором Верном, бесстрашные воины смогли одержать победу и очистить любимый город от преступности. Леонардо, Микеланджело, Рафаэль и Донателло нашли свое предназначение в этом мире и стали защитниками своего города. Они навели порядок в Нью-Йорке и с чистой совестью могли отправиться на покой, но однажды им вновь пришлось столкнуться с могущественным врагом, угрожающим их городу…


Возраст: 6+ (зрителям, достигшим 6 лет)
Рейтинг MPAA: PG-13 (детям до 13 лет просмотр нежелателен)
Дата мировой премьеры: 22 мая 2016
Дата премьеры в России: 2 июня 2016, «Централ Партнершип»

Продолжительность: 01:52:15
Качество видео: WEB-DL
Перевод: Дублированный (iTunes)
Вид субтитров: Вшитые отключаемые
Язык субтитров: Русский (Forced), Русский (Full)

Видео: AVC/H.264, 1916×796 (2.40:1), 4544 kb/s, 23.976 fps
Аудио »1: 48 kHz, AC3 Dolby Digital, 3/2 (L,C,R,l,r) + LFE ch, ~384 kbps (Русский)
Аудио »2: 48 kHz, AC3 Dolby Digital, 2/0 (L,R) + ch, ~192 kbps (Оригинал/Английский)

Общее
Уникальный идентификатор : 189276115485451648100382307734908949085 (0x8E6540FCC6F1805D90BCE5BDD131D25D)
Полное имя : D:\Релизы\Черепашки-ниндзя.2.2016.WEB-DL.[1080p].mkv
Формат : Matroska
Версия формата : Version 2
Размер файла : 4,02 Гбайт
Продолжительность : 1 ч. 52 м.
Общий поток : 5122 Кбит/сек
Название фильма : Черепашки-ниндзя.2.2016.WEB-DL.[1080p].NNMClub.to
Дата кодирования : UTC 2016-08-29 19:41:10
Программа кодирования : mkvmerge v8.3.0 ('Over the Horizon') 64bit
Библиотека кодирования : libebml v1.3.1 + libmatroska v1.4.2

Видео
Идентификатор : 1
Формат : AVC
Формат/Информация : Advanced Video Codec
Профиль формата : High@L4
Параметр CABAC формата : Да
Параметр ReFrames формата : 5 кадров
Идентификатор кодека : V_MPEG4/ISO/AVC
Продолжительность : 1 ч. 52 м.
Битрейт : 4544 Кбит/сек
Ширина : 1916 пикселей
Высота : 796 пикселей
Соотношение сторон : 2,40:1
Режим частоты кадров : Постоянный
Частота кадров : 23,976 (23976/1000) кадра/сек
Цветовое пространство : YUV
Субдискретизация насыщенности : 4:2:0
Битовая глубина : 8 бит
Тип развёртки : Прогрессивная
Бит/(Пиксели*Кадры) : 0.124
Размер потока : 3,56 Гбайт (89%)
Заголовок : Черепашки-ниндзя.2.2016.WEB-DL.[1080p].NNMClub.to
Язык : English
Default : Да
Forced : Нет
Цветовой диапазон : Limited
Основные цвета : BT.709
Характеристики трансфера : BT.709
Коэффициенты матрицы : BT.709

Аудио #1
Идентификатор : 2
Формат : AC-3
Формат/Информация : Audio Coding 3
Расширение режима : CM (complete main)
Параметр Endianness формата : Big
Идентификатор кодека : A_AC3
Продолжительность : 1 ч. 52 м.
Вид битрейта : Постоянный
Битрейт : 384 Кбит/сек
Каналы : 6 каналов
Расположение каналов : Front: L C R, Side: L R, LFE
Частота : 48,0 КГц
Частота кадров : 31,250 кадров/сек (1536 spf)
Метод сжатия : С потерями
Размер потока : 308 Мбайт (7%)
Заголовок : iTunes
Язык : Russian
Default : Да
Forced : Да

Аудио #2
Идентификатор : 3
Формат : AC-3
Формат/Информация : Audio Coding 3
Расширение режима : CM (complete main)
Параметр Endianness формата : Big
Идентификатор кодека : A_AC3
Продолжительность : 1 ч. 52 м.
Вид битрейта : Постоянный
Битрейт : 192 Кбит/сек
Каналы : 2 канала
Расположение каналов : Front: L R
Частота : 48,0 КГц
Частота кадров : 31,250 кадров/сек (1536 spf)
Метод сжатия : С потерями
Размер потока : 154 Мбайт (4%)
Заголовок : Original
Язык : English
Default : Нет
Forced : Нет

Текст #1
Идентификатор : 4
Формат : UTF-8
Идентификатор кодека : S_TEXT/UTF8
Идентификатор кодека/Информация : UTF-8 Plain Text
Продолжительность : 1 ч. 41 м.
Битрейт : 0 бит/сек
Count of elements : 11
Размер потока : 399 байт (0%)
Заголовок : Forced
Язык : Russian
Default : Да
Forced : Да

Текст #2
Идентификатор : 5
Формат : UTF-8
Идентификатор кодека : S_TEXT/UTF8
Идентификатор кодека/Информация : UTF-8 Plain Text
Продолжительность : 1 ч. 43 м.
Битрейт : 96 бит/сек
Count of elements : 1371
Размер потока : 72,8 Кбайт (0%)
Заголовок : Full
Язык : Russian
Default : Нет
Forced : Нет

Меню
00:00:00.000 : en:1
00:05:54.000 : en:2
00:12:17.000 : en:3
00:18:52.000 : en:4
00:26:37.000 : en:5
00:33:13.000 : en:6
00:38:55.000 : en:7
00:44:10.000 : en:8
00:49:39.000 : en:9
00:55:39.000 : en:10
01:02:00.000 : en:11
01:04:51.000 : en:12
01:14:31.000 : en:13
01:21:17.000 : en:14
01:28:09.000 : en:15
01:36:57.000 : en:16
01:41:51.000 : en:17
01:46:20.000 : en:18

Скриншоты:


Все одноименные релизы в Клубе
Время раздачи: 24/7 (до появления первых 3-5 скачавших)

Похожие торренты

Опубликовано в Без рубрики Метки: , , , , , , , , , ,

Добавить комментарий

Ваш e-mail не будет опубликован. Обязательные поля помечены *

*

Популярные за неделю

Популярные за месяц