День независимости: Возрождение / Independence Day: Resurgence (2016) WEBRip [H.264/1080p-LQ]


День независимости: Возрождение / Independence Day: Resurgence (2016) WEBRip [H.264/1080p-LQ]
Производство: США, 20th Century Fox Film Corporation
Жанр: Фантастика, Боевик, Приключения

Режиссер: Роланд Эммерих
Продюсер: Дин Девлин, Роланд Эммерих, Харальд Клозер
Актеры: Лиам Хемсворт, Джефф Голдблюм, Джесси Ашер, Билл Пуллман, Майка Монро, Села Уорд, Уильям Фихтнер, Джадд Хёрш, Брент Спайнер, Патрик Ст. Эсприт

Описание:
Используя инопланетные технологии, жители Земли создали специальную программу по защите планеты. Но ничего не может нас спасти от нового, еще более разрушительного и масштабного инопланетного вторжения — только смелость нескольких героев, которые единственные могут спасти наш мир от уничтожения.


Возраст: 12+ (зрителям, достигшим 12 лет)
Рейтинг MPAA: PG-13 (детям до 13 лет просмотр нежелателен)
Дата мировой премьеры: 20 июня 2016
Дата премьеры в РФ: 23 июня 2016, «Двадцатый Век Фокс СНГ»

Продолжительность: 01:59:11
Качество видео: WEBRip
Перевод: Дублированный
Вид субтитров: Вшитые неотключаемые
Язык субтитров: Корейский

Видео: AVC/H.264, 1920×1080, 4131 kbps
Аудио »1: 48 kHz, AC3 Dolby Digital, 3/2 (L,C,R,l,r) + LFE ch, ~384 kbps (Русский)
Аудио »2: 48 kHz, AC3 Dolby Digital, 2/0 (L,R) ch, ~256 kbps (Английский/Оригинал)

Общее
Уникальный идентификатор : 222935677551643693074843418287900887738 (0xA7B7D9866424E41B94CDFEDCDC6E8ABA)
Полное имя : D:\Релизы\День.независимости.Возрождение.2016.WEBRip.[1080p].mkv
Формат : Matroska
Версия формата : Version 2
Размер файла : 4,05 Гбайт
Продолжительность : 1 ч. 59 м.
Общий поток : 4868 Кбит/сек
Название фильма : День.независимости.Возрождение.2016.WEBRip.[1080p].NNMClub.to
Дата кодирования : UTC 2016-08-20 17:50:05
Программа кодирования : mkvmerge v8.3.0 ('Over the Horizon') 64bit
Библиотека кодирования : libebml v1.3.1 + libmatroska v1.4.2

Видео
Идентификатор : 1
Формат : AVC
Формат/Информация : Advanced Video Codec
Профиль формата : Baseline@L4
Параметр CABAC формата : Нет
Параметр ReFrames формата : 1 кадр
Идентификатор кодека : V_MPEG4/ISO/AVC
Продолжительность : 1 ч. 59 м.
Битрейт : 4131 Кбит/сек
Ширина : 1920 пикселей
Высота : 1080 пикселей
Соотношение сторон : 16:9
Режим частоты кадров : Постоянный
Частота кадров : 29,970 кадров/сек
Цветовое пространство : YUV
Субдискретизация насыщенности : 4:2:0
Битовая глубина : 8 бит
Тип развёртки : Прогрессивная
Бит/(Пиксели*Кадры) : 0.066
Размер потока : 3,44 Гбайт (85%)
Заголовок : День.независимости.Возрождение.2016.WEBRip.[1080p].NNMClub.to
Язык : English
Default : Да
Forced : Нет

Аудио #1
Идентификатор : 2
Формат : AC-3
Формат/Информация : Audio Coding 3
Расширение режима : CM (complete main)
Параметр Endianness формата : Big
Идентификатор кодека : A_AC3
Продолжительность : 1 ч. 59 м.
Вид битрейта : Постоянный
Битрейт : 384 Кбит/сек
Каналы : 6 каналов
Расположение каналов : Front: L C R, Side: L R, LFE
Частота : 48,0 КГц
Метод сжатия : С потерями
Задержка видео : -46 мс.
Размер потока : 327 Мбайт (8%)
Язык : Russian
Default : Да
Forced : Да

Аудио #2
Идентификатор : 3
Формат : AC-3
Формат/Информация : Audio Coding 3
Расширение режима : CM (complete main)
Параметр Endianness формата : Big
Идентификатор кодека : A_AC3
Продолжительность : 1 ч. 59 м.
Вид битрейта : Постоянный
Битрейт : 256 Кбит/сек
Каналы : 2 канала
Расположение каналов : Front: L R
Частота : 48,0 КГц
Метод сжатия : С потерями
Задержка видео : -46 мс.
Размер потока : 218 Мбайт (5%)
Язык : English
Default : Нет
Forced : Нет

Скриншоты:


Все одноименные релизы в Клубе
Время раздачи: 24/7 (до появления первых 3-5 скачавших)

Похожие торренты

Опубликовано в Без рубрики Метки: , , , , , , , , , ,

Добавить комментарий

Ваш e-mail не будет опубликован. Обязательные поля помечены *

*

Популярные за неделю

Популярные за месяц