Иллюзия обмана 2 / Now You See Me 2 (2016) BDRip


Иллюзия обмана 2 / Now You See Me 2 (2016) BDRip
Производство: США, Китай, Великобритания, Канада, Lionsgate, Summit Entertainment
Жанр: Боевик, Триллер, Комедия, Криминал, Детектив, Приключения

Режиссер: Джон М. Чу
Продюсер: Бобби Коэн, Алекс Куртцман, Роберто Орси
Актеры: Дэниэл Рэдклифф, Лиззи Каплан, Джесси Айзенберг, Марк Руффало, Дэйв Франк, Вуди Харрельсон, Майкл Кейн, Санаа Лэтэn, Генри Ллойд-Хьюз, Джей Чоу

Описание:
«Четыре всадника», команда лучших иллюзионистов мира, снова в сборе! Их «магия» стала еще совершеннее, а враги — опаснее. На сей раз им предстоит спасти свою репутацию и вывести на чистую воду жестокого техномагната…


Возраст: 12+ (зрителям, достигшим 12 лет)
Рейтинг MPAA: PG-13 (детям до 13 лет просмотр нежелателен)
Дата мировой премьеры: 2 июня 2016
Дата премьеры в России: 9 июня 2016, «Централ Партнершип»

Продолжительность: 02:09:29
Качество видео: BDRip
Перевод: Дублированный (Лицензия)
Субтитры: Отсутствуют

Видео: XviD, 720×400, 1877 Kbps
Аудио: 48 kHz, AC3 Dolby Digital, 3/2 (L,C,R,l,r) + LFE ch, ~448 kbps

Общее
Полное имя : D:\Релизы\Иллюзия.обмана.2016.BDRip.2.05GB.avi
Формат : AVI
Формат/Информация : Audio Video Interleave
Профиль формата : OpenDML
Размер файла : 2,06 Гбайт
Продолжительность : 2 ч. 9 м.
Общий поток : 2274 Кбит/сек
Программа кодирования : VirtualDubMod 1.5.10.3 | www.virtualdub-fr.org || (build 2550/release)
Библиотека кодирования : VirtualDubMod build 2550/release

Видео
Идентификатор : 0
Формат : MPEG-4 Visual
Профиль формата : Advanced Simple@L5
Параметр BVOP формата : 2
Параметр QPel формата : Нет
Параметр GMC формата : Без точки перехода
Параметр матрицы формата : Default (MPEG)
Идентификатор кодека : XVID
Идентификатор кодека/Подсказка : XviD
Продолжительность : 2 ч. 9 м.
Битрейт : 1877 Кбит/сек
Ширина : 720 пикселей
Высота : 400 пикселей
Соотношение сторон : 16:9
Частота кадров : 24,000 кадра/сек
Цветовое пространство : YUV
Субдискретизация насыщенности : 4:2:0
Битовая глубина : 8 бит
Тип развёртки : Прогрессивная
Метод сжатия : С потерями
Бит/(Пиксели*Кадры) : 0.272
Размер потока : 1,70 Гбайт (83%)
Библиотека кодирования : XviD 1.2.1 (UTC 2008-12-04)

Аудио
Идентификатор : 1
Формат : AC-3
Формат/Информация : Audio Coding 3
Расширение режима : CM (complete main)
Параметр Endianness формата : Big
Идентификатор кодека : 2000
Продолжительность : 2 ч. 9 м.
Вид битрейта : Постоянный
Битрейт : 384 Кбит/сек
Каналы : 6 каналов
Расположение каналов : Front: L C R, Side: L R, LFE
Частота : 48,0 КГц
Метод сжатия : С потерями
Размер потока : 356 Мбайт (17%)
Выравнивание : Разделение по промежуткам
Продолжительность промежутка : 42 мс. (1,00 видеокадр)
Время предзагрузки промежутка : 500 мс.

Скриншоты:


Все одноименные релизы в Клубе
Время раздачи: 24/7. До первых 5 скачавших.

Похожие торренты

Опубликовано в Без рубрики Метки: , , , , , , , ,

Добавить комментарий

Ваш e-mail не будет опубликован. Обязательные поля помечены *

*

Популярные за неделю

Популярные за месяц