Капитан Фантастик / Captain Fantastic (2016) WEB-DL [H.264/720p-LQ] [Line]


Капитан Фантастик / Captain Fantastic (2016) WEB-DL [H.264/720p-LQ]
Производство: США, Electric City Entertainment, ShivHans Pictures
Жанр: Драма, Мелодрама, Комедия

Режиссер: Мэтт Росс
Продюсер: Деклан Болдуин, Саманта Хаусман, Моника Левинсон
Актеры: Вигго Мортенсен, Джордж МакКэй, Саманта Ислер, Анналиса Бассо, Николас Хэмилтон, Шри Крукс, Чарли Шотуэлл, Трин Миллер, Кэтрин Хан, Стив Зан

Описание:
Они говорят на нескольких языках, знают квантовую физику и разбираются в философии. Они умеют охотиться и обращаться с оружием. Они живут в лесу в полной гармонии с природой. Лишь стечение обстоятельств заставляет их покинуть родной дом и отправиться в большой город. Что будет, когда они столкнутся с цивилизацией, когда на них обрушится первая любовь и мир гаджетов и социальных сетей?


Возраст: 16+ (зрителям, достигшим 16 лет)
Рейтинг MPAA: R (лицам до 17 лет обязательно присутствие взрослого)
Дата мировой премьеры: 23 января 2016
Дата российской премьеры: 11 августа 2016, «Capella Film»

Продолжительность: 01:59:33
Качество видео: WEB-DL
Перевод: Многоголосый закадровый, профессиональный (официальный)
Вид субтитров: Отсутствуют
Реклама: Присутствуют аудио и видео вставки рекламы

Видео: AVC/H.264, 1280×536 (2.40:1), 4410 kb/s
Аудио: 48 kHz, AC3 Dolby Digital, 2/0 (L,R) + ch, ~448 kbps

Общее
Уникальный идентификатор : 179442669491618574752677910682159469733 (0x86FF66AB0C038B37891E8CA63A0ED4A5)
Полное имя : D:\Релизы\Капитан.Фантастик.2016.WEB-DL.[720p].mkv
Формат : Matroska
Версия формата : Version 2
Размер файла : 4,14 Гбайт
Продолжительность : 1 ч. 59 м.
Режим общего битрейта : Постоянный
Общий поток : 4957 Кбит/сек
Дата кодирования : UTC 2016-08-18 14:35:45
Программа кодирования : mkvmerge v8.3.0 ('Over the Horizon') 64bit
Библиотека кодирования : libebml v1.3.1 + libmatroska v1.4.2

Видео
Идентификатор : 1
Формат : AVC
Формат/Информация : Advanced Video Codec
Профиль формата : High@L4.1
Параметр CABAC формата : Да
Параметр ReFrames формата : 12 кадров
Идентификатор кодека : V_MPEG4/ISO/AVC
Продолжительность : 1 ч. 59 м.
Вид битрейта : Постоянный
Битрейт : 4410 Кбит/сек
Номинальный битрейт : 4900 Кбит/сек
Ширина : 1280 пикселей
Высота : 536 пикселей
Соотношение сторон : 2,40:1
Режим частоты кадров : Постоянный
Частота кадров : 24,000 кадра/сек
Стандарт вещания : Component
Цветовое пространство : YUV
Субдискретизация насыщенности : 4:2:0
Битовая глубина : 8 бит
Тип развёртки : Прогрессивная
Бит/(Пиксели*Кадры) : 0.268
Размер потока : 3,68 Гбайт (89%)
Default : Да
Forced : Нет
Цветовой диапазон : Limited
Основные цвета : BT.709
Характеристики трансфера : BT.709
Коэффициенты матрицы : BT.709

Аудио
Идентификатор : 2
Формат : AC-3
Формат/Информация : Audio Coding 3
Расширение режима : CM (complete main)
Параметр Endianness формата : Big
Идентификатор кодека : A_AC3
Продолжительность : 1 ч. 59 м.
Вид битрейта : Постоянный
Битрейт : 448 Кбит/сек
Каналы : 2 канала
Расположение каналов : Front: L R
Частота : 48,0 КГц
Метод сжатия : С потерями
Размер потока : 383 Мбайт (9%)
Default : Да
Forced : Нет

Каннский кинофестиваль, 2016 год

Победитель (1):

  • Особый взгляд Каннского кинофестиваля — лучший режиссер ( Мэтт Росс )

Номинации (1):

  • Особый взгляд Каннского кинофестиваля

Скриншоты:


Все одноименные релизы в Клубе
Время раздачи: 24/7 (до появления первых 3-5 скачавших)

Похожие торренты

Опубликовано в Без рубрики Метки: , , , , , , , , ,

Добавить комментарий

Ваш e-mail не будет опубликован. Обязательные поля помечены *

*

Популярные за неделю

Популярные за месяц